咩吖

(流行、放克、灵魂、电子、嘻哈、雷鬼)[CD] VA - Sex And The CD Vol. 1 II - 2004,FLAC(曲目+.cue),无损

咩吖 2023-12-28 491/0
轩轩音乐提供的(流行、放克、灵魂、电子、嘻哈、雷鬼)[CD] VA - Sex And The CD Vol. 1 II - 2004,FLAC(曲目+.cue),无损下载地址来源于网络分享,网络资源均有时效性,请尽快下载(流行、放克、灵魂、电子、嘻哈、雷鬼)[CD] VA - Sex And The CD Vol. 1 II - 2004,FLAC(曲目+.cue),无损,或保存(流行、放克、灵魂、电子、嘻哈、雷鬼)[CD] VA - Sex And The CD Vol. 1 II - 2004,FLAC(曲目+.cue),无损到自己的网盘避免资源失效。
(流行、放克、灵魂、电子、嘻哈、雷鬼)[CD] VA - Sex And The CD Vol. 1 II - 2004,FLAC(曲目+.cue),无损(282.9 MB)下载
磁力链:
隐藏内容,请登录后查看

性与 CD 卷。二 (合辑、宣传片) 类型: 流行、放克、灵魂、电子、嘻哈、雷鬼 媒体:CD 光盘(发行)原产国:英国 出版年份: 2004 出版商(厂牌):Spin Music / News Of The World 目录号:SM/NOTW009GB / SM/NOTW009GB 音频编解码器:FLAC (*.flac) 翻录类型:曲目+.cue 音频比特率:无损 持续时间:00:41:15 来源(发布者):stas64 分发内容中是否提供扫描件:是 600 dpi

(流行、放克、灵魂、电子、嘻哈、雷鬼)[CD] VA - Sex And The CD Vol. 1 II - 2004,FLAC(曲目+.cue),无损

。 .Tracklist:01 - Liberty X - 只是一点点。 02 - Kool & The Gang - 太热了。 03 - 沙巴排名 - 先生。情人。 04 - TQ - 西区。 05 - 路德·范德罗斯 - 太棒了。 06 - Boyz II Men - 我会和你做爱。 07 - 菲利斯·尼尔森 - 靠近点。 08 - 格洛丽亚·埃斯特凡和迈阿密音响机器 - 无法远离你。 09 - 逃亡者 - 没有女人,没有哭泣。 10 - 艾尔·格林 - 厌倦了孤独..

(流行、放克、灵魂、电子、嘻哈、雷鬼)[CD] VA - Sex And The CD Vol. 1 II - 2004,FLAC(曲目+.cue),无损

性与 CD 卷。我 小册子

(流行、放克、灵魂、电子、嘻哈、雷鬼)[CD] VA - Sex And The CD Vol. 1 II - 2004,FLAC(曲目+.cue),无损

(流行、放克、灵魂、电子、嘻哈、雷鬼)[CD] VA - Sex And The CD Vol. 1 II - 2004,FLAC(曲目+.cue),无损

(流行、放克、灵魂、电子、嘻哈、雷鬼)[CD] VA - Sex And The CD Vol. 1 II - 2004,FLAC(曲目+.cue),无损

(流行、放克、灵魂、电子、嘻哈、雷鬼)[CD] VA - Sex And The CD Vol. 1 II - 2004,FLAC(曲目+.cue),无损

Rip 创建日志 2015 年 6 月 23 日的 Exact Audio Copy V1.1 EAC 报告于 2016 年 6 月 5 日 19:10 执行提取,各种 / 性与 CD,第 2 卷 驱动器: PLEXTOR DVDR PX-712A 适配器: 8 ID: 1 读取模式:准确性 使用精确流:是 禁用音频缓存:是 使用 C2 指针:否 读取偏移校正:0 读取导入和导出区域的能力:否 用静音填充丢失的样本:是 删除带有前导和结束静音的块:否CRC 计算中使用了空样本:是 接口:安装了外部 ASPI -interfaceGap 处理:添加到以前的轨道输出格式:自定义编码器选择的比特率:128 kBit/s 质量:HighAdd ID3 标签:无压缩实用程序:C:\Program Files\Exact Audio Copy\ Flac\flac.exe附加参数: -V -8 -T "Genre=%genre%" -T "Artist=%artist%" -T "Title=%title%" -T "Album=%albumtitle%" -T " Date=%year%" -T "Tracknumber=%tracknr %" -T "Comment=%comment%" 弹出 CD 曲目的 %source%TOC |开始|持续时间 |第一产业|结束扇区------------------------------------------------ ---------------------- 1 | 0:00.00 | 3:56.08 | 0 | 17707 2 | 3:56.08 | 5:03.40 | 17708| 40472 3 | 8:59.48 | 5:40.35 | 40473 | 40473 66007 4 | 14:40.08 | 3:52.22 | 66008 | 83429 5 | 18:32.30 | 3:41.38 | 83430 | 100042 6 | 22:13.68 | 3:57.30 | 100043 | 100043 117847 7 | 26:11.23 | 4:03.47 | 117848 | 136119 8 | 30:14.70 | 3:58.23 | 136120 | 153992 9 | 34:13.18 | 4:21.42 | 153993 | 173609 10 | 38:34.60 | 2:40.65 | 2:40.65 173610 | 185674Track 1 文件名 I:\MOI_RAZDACI\VA_Sex 和 CD 卷。 II\VA_Sex.And.The.CD.Vol.II_2004\01 - Liberty X - Just a Little.wav 预间隙长度 0:00:02.00 峰值电平 97.8% 检索速度 8.4 X 轨道质量 100.0% CRC 测试 5B02F72E CRC 副本5B02F72E 正在复制 ... OKTrack 2 文件名 I:\MOI_RAZDACI\VA_Sex 和 CD 第 1 卷II\VA_Sex.And.The.CD.Vol.II_2004\02 - Kool & The Gang - Too Hot.wav 预间隙长度 0:00:01.28 峰值电平 99.9% 检索速度 9.5 X 曲目质量 100.0% CRC 测试 D01D605D CRC复制 D01D605D 正在复制... OKTrack 3 文件名 I:\MOI_RAZDACI\VA_Sex 和 CD 第 1 卷。 II\VA_Sex.And.The.CD.Vol.II_2004\03 - Shabba Ranks - 先生。 Loverman.wav 预间隙长度 0:00:00.61 峰值电平 98.1% 检索速度 10.6 X 曲目质量 100.0% 测试 CRC B04C9D75 复制 CRC B04C9D75 复制... OKTrack 4 文件名 I:\MOI_RAZDACI\VA_Sex 和 CD Vol. II\VA_Sex.And.The.CD.Vol.II_2004\04 - TQ - Westside.wav 预间隙长度 0:00:02.33 峰值电平 98.0% 检索速度 11.2 X 轨道质量 100.0% CRC 测试 C71CB43E CRC 复制 C71CB43E 复制。 .. OKTrack 5 文件名 I:\MOI_RAZDACI\VA_Sex 和 CD 卷。 II\VA_Sex.And.The.CD.Vol.II_2004\05 - Luther Vandross - So Amazing.wav 预间隙长度 0:00:01.05 峰值水平 98.0% 检索速度 11.8 X 轨道质量 100.0% 测试 CRC 6953B199 复制 CRC 6953B199复制... OKTrack 6 文件名 I:\MOI_RAZDACI\VA_Sex 和 CD 卷。 II\VA_Sex.And.The.CD.Vol.II_2004\06 - Boyz II Men - I'll Make Love to You.wav 预间隙长度 0:00:01.34 峰值水平 98.2% 检索速度 10.5 X 曲目质量 99.9% CRC 测试 3D97D867 CRC 复制 3D97D867 正在复制... OKTrack 7 文件名 I:\MOI_RAZDACI\VA_Sex II\VA_Sex.And.The.CD.Vol.II_2004\07 - Phyllis Nelson - Move Closer.wav 预间隙长度 0:00:00.51 峰值电平 98.4% 检索速度 12.9 X 轨道质量 100.0% 测试 CRC 93BDBE49 复制 CRC 93BDBE49复制... OKTrack 8 文件名 I:\MOI_RAZDACI\VA_Sex 和 CD 卷。 II\VA_Sex.And.The.CD.Vol.II_2004\08 - Gloria Estefan 和迈阿密音响机器 - Can't Stay Away From You.wav 预间隙长度 0:00:02.74 峰值电平 99.9% 提取速度 13.5 X Track质量 100.0 % 测试 CRC 721121C0 复制 CRC 721121C0 正在复制... OKTrack 9 文件名 I:\MOI_RAZDACI\VA_Sex 和 CD 卷。 II\VA_Sex.And.The.CD.Vol.II_2004\09 - Fugees - No Woman, No Cry.wav 预间隙长度 0:00:02.44 峰值电平 99.4% 检索速度 14.1 X 曲目质量 100.0% CRC 测试 82A85D1F CRC复制 82A85D1F 正在复制... OKTrack 10 文件名 I:\MOI_RAZDACI\VA_Sex 和 CD 第 1 卷。 II\VA_Sex.And.The.CD.Vol.II_2004\10 - Al Green - Tired of Being Alone.wav 预间隙长度 0:00:03.08 峰值电平 98.2% 检索速度 11.4 X 轨道质量 100.0% CRC 测试 E426C47E CRC复制 E426C47E 正在复制... OK没有发生错误报告结束----CUETools DB Plugin V2.1.6[CTDB TOCID: MvgvfEF0yEw81jSR4_zk.lPCJq8-] 已找到提交结果:MvgvfEF0yEw81jSR4_zk.lPCJq8- 已被确认追踪 | CTDB 状态 1 | (9/9) 准确撕2 | (9/9) 准确撕3 | (9/9) 准确撕4 | (9/9) 准确撕5 | (9/9) 准确撕6 | (9/9) 准确撕7 | (9/9) 准确撕8 | (9/9) 准确撕开9 | (9/9) 准确撕10 | (9/9) 准确破解====报告校验和0217984F54606326E2AD79D59A9E4EB8E953B61585ABD260BA86B9D2A71A0C9F ==== 索引卡内容 (.CUE) REM GENRE PopREM 日期 2004REM DISCID 7609AB0AREM 评论“ExactAudioCopy v1.1”表演者“各种”标题“性与 CD,卷 2”文件“01 - Liberty X -Just a Little.wav”WAVE TRACK 01 音频标题“Just a Little”表演者“Liberty X”ISRC GBBLK0200083 索引 01 00:00:00 TRACK 02 音频标题“Too Hot”表演者“Kool & The Gang”ISRC USPR37970011 索引 00 03:54:55FILE“02 - Kool & The Gang - 太热了。 wav" WAVE INDEX 01 00:00:00 TRACK 03 AUDIO TITLE "Mr. Loverman" PERFORMER "Shabba Ranks" ISRC USSM19909449 INDEX 00 05:02:54FILE "03 - Shabba Ranks - Mr. Loverman.wav" WAVE INDEX 01 00: 00:00 曲目 04 音频标题“Westside”表演者“TQ”ISRC USSM19704605 索引 00 05:38:02FILE“04 - TQ - Westside.wav”WAVE INDEX 01 00:00:00 曲目 05 音频标题“So Amazing”表演者“ Luther Vandross" ISRC USSM18600044 INDEX 00 03:51:17FILE "05 - Luther Vandross - So Amazing.wav" WAVE INDEX 01 00:00:00 TRACK 06 音频标题“I'll Make Love to You”表演者“Boyz II Men” ISRC USMO19400340 索引 00 03:40:04文件“06 - Boyz II Men - I'll Make Love to You.wav”WAVE INDEX 01 00:00:00 TRACK 07 音频标题“Move Closer”表演者“Phyllis Nelson”索引 00 03 :56:54文件“07 - Phyllis Nelson - Move Closer.wav”WAVE INDEX 01 00:00:00 TRACK 08 音频标题“Can't Stay Away From You”表演者“Gloria Estefan 和迈阿密音响机器”ISRC USSM18700012 INDEX 00 04 :00:48FILE“08 - Gloria Estefan 和迈阿密 Sound Machine - Can't Stay Away From You.wav”WAVE INDEX 01 00:00:00 TRACK 09 音频标题“No Woman, No Cry”表演者“Fugees”ISRC USSM19503312 INDEX 00 03:55:54FILE “09 - Fugees - No Woman, No Cry.wav” WAVE INDEX 01 00:00:00 TRACK 10 AUDIO TITLE “Tired of Being Alone” PERFORMER “Al Green” INDEX 00 04:18:34FILE “ 10 - Al Green - 厌倦了孤独.wav" WAVE INDEX 01 00:00:00 质量检查日志 -----------------------不要修改此文件------------------------ --执行者:auCDtect 任务管理器,版本。 1.5.1RC6 版本 1.5.1.7版权所有 (c) 2008-2010 y-soft。保留所有权利http://y-soft.orgANALYZER:auCDtect:CD 记录真实性检测器,版本 0.8.2 版权所有 (c) 2004 Oleg Berngardt。保留所有权利。版权所有 (c) 2004 Alexander Djourik。保留所有权利。文件:10 - Al Green - 厌倦孤独.flac 大小:12184645 哈希值:30EA97C7B7EC376F5C9B64ED5D233872 准确性:-m0 结论:CDDA 100% 签名:FF6E2C859D44A9A77FDEA6C747798A9C0204632 7文件:09 - 逃亡者 - 没有女人,没有哭泣.flac 大小: 28141978 哈希值:8C4F1FF9A9991205602CC2EA38B6D707 准确度:-m0 结论:CDDA 100% 签名:A56E792F53C67105AB4E91786141C2430DED453B 文件:08 - Gloria Estefan 和迈阿密音响机器 - 无法远离你。 flac 大小:2 5056047 哈希值:F1528CC64A28D85D87748170D6F0AC1A 准确度:-m0 结论:CDDA 100 % 签名:3FE7E68CE3CA053DCE1AE9FE526F5CBED22A553AFILE:07 - Phyllis Nelson - Move Closer.flac 大小:29647579 哈希:16750B2C15100CC1F9E6A10B54005718 准确性:-m0 结论:CDDA 100% 签名: B5 5A65D4B828DBF830BF20A60422204AE9CCB90BFILE: 06 - Boyz II Men - I'll Make Love to You.flac 大小: 29851434 哈希值: 52A58E42CB03764353F6A3FBB3702E33 准确度: -m0 结论: CDDA 100% 签名: 06D5534EA483A78F3B888A15C9B6E300C1279BB5FILE: 05 - Luther Vandross - So Amazing.flac 大小: 22444894 哈希值:7BA80456B20584DD9A85944EE43997F1 准确度:-m0 结论:CDDA 100% 签名:906E3EFBCCE1EB44D441EC9BAC3D386CC79AE572文件:04 - TQ - Westside.flac 大小:30015847 哈希:E99F99D1AE863188ADA3E5263D871613 准确度:-m0 结论:CDDA 100% 签名:67B513CD042B1539563648C68C4488CB8C62F5A8FILE:03 - Shabba Ranks - Mr. Loverman.flac 大小:40324751 哈希:EE66FFCF6ADB8664FDE9CAD69A6A4E68 准确度:-m0 结论:CDDA 100% 签名:86455DF869139109624CDF07B2DE74BACB3E830FFILE:02 - Kool & The Gang - Too Hot.flac 大小:328 12835 哈希值:26E33948B440416C738D00480D3DDFD7 准确度:-m0 结论:CDDA 100% 签名: 6B5579741230FFEA05DB84C539536C8AAEC415D7FILE: 01 - Liberty X - Just a Little.flac 大小: 30996285 哈希值: 026CE8528FA7383C700B22B2B7302F37 准确性: -m0 结论: CDDA 100% 签名: B3BE8D52 2332392E2895FF848FA3ED6873CB2CDF

请先登录

回复 (流行、放克、灵魂、电子、嘻哈、雷鬼)[CD] VA - Sex And The CD Vol. 1 II - 2004,FLAC(曲目+.cue),无损

VIP专属快捷回复:

支持高兴激动给力加油围观路过感动抢座
轩轩音乐所有信息均由网友转载自互联网,没有存储任何形式的文件供下载,请下载试看后删除,请购买正版支持正版。本站内容如有侵权请联系:k42d.rr.nu, 我们会在收到您的邮件后立即删除!
主题数87279回复数72444用户数17262
最新VIP

酸奶文 开通了 包月VIP
热心睿 开通了 季度VIP
丁家祥 开通了 包月VIP
咖啡甜美 开通了 季度VIP
辛勤悟空 开通了 季度VIP
怡然诺言 开通了 包月VIP
典雅骅 开通了 年费VIP
花羽 开通了 包月VIP
酸奶文 开通了 包月VIP
热心睿 开通了 季度VIP

Copyright © 2023 轩轩音乐 XX.CQE.CC
POWER BY CleenBB x3.4 PROCESSED: 15.4