鹿灵

(流行、电子、欧洲流行)[CD] o'Ou (oOu) - o'Ou - 1997,FLAC (image+.cue),无损

鹿灵 2023-12-28 682/0
轩轩音乐提供的(流行、电子、欧洲流行)[CD] o'Ou (oOu) - o'Ou - 1997,FLAC (image+.cue),无损下载地址来源于网络分享,网络资源均有时效性,请尽快下载(流行、电子、欧洲流行)[CD] o'Ou (oOu) - o'Ou - 1997,FLAC (image+.cue),无损,或保存(流行、电子、欧洲流行)[CD] o'Ou (oOu) - o'Ou - 1997,FLAC (image+.cue),无损到自己的网盘避免资源失效。
(流行、电子、欧洲流行)[CD] o'Ou (oOu) - o'Ou - 1997,FLAC (image+.cue),无损(522.9 MB)下载
磁力链:
隐藏内容,请登录后查看

(流行、电子、欧洲流行)[CD] o'Ou (oOu) - o'Ou - 1997,FLAC (image+.cue),无损

。 .o'Ou。 .流派:流行、电子、欧洲流行 媒体:CD 光盘原产国(发行):芬兰 出版年份: 1997 发行商(厂牌):AXR 目录号:AXRCD 1087 表演者国家(群展):芬兰 音频编解码器:FLAC (*.flac) 翻录类型:图像+.cue 音频比特率:无损 持续时间:01:05:04 来源(发布者):stas64 分发内容中是否提供扫描件:是 - 600 dpi, (书中的歌词除外,照片由分发作者自行决定)。 。 。 .曲目列表:01。伊索·伊卡瓦. 02.卡杜拉·图里。 03. 胡库·瑞特敏。 04. 乌托阿拉考塔。 05. Olet Kaikki Mita Tiedan。 06. 库卡·卢帕斯卡安。 07. 凯肯艾卡。 08.Ennen Kuin Huomaatkaan。 09. 伦塔萨特。 10. 萨见面。 11. 关于梅拉·艾卡。 12. 平塔西维马勒。 13.Kuka Lupasikaan(慢编辑)。 14. Kaduilla Tuulee(Discotuuli Mix)。 15. Huku Rytmiin(科巴卡巴纳)。 16. Pintaa Syvemmalle(Direktiivi Mix)。 17. Kaiken Aikaa(舞蹈组合)。 18. Lentaa Saat(快乐 Hc)。 小册子

(流行、电子、欧洲流行)[CD] o'Ou (oOu) - o'Ou - 1997,FLAC (image+.cue),无损

(流行、电子、欧洲流行)[CD] o'Ou (oOu) - o'Ou - 1997,FLAC (image+.cue),无损

(流行、电子、欧洲流行)[CD] o'Ou (oOu) - o'Ou - 1997,FLAC (image+.cue),无损

(流行、电子、欧洲流行)[CD] o'Ou (oOu) - o'Ou - 1997,FLAC (image+.cue),无损

(流行、电子、欧洲流行)[CD] o'Ou (oOu) - o'Ou - 1997,FLAC (image+.cue),无损

(流行、电子、欧洲流行)[CD] o'Ou (oOu) - o'Ou - 1997,FLAC (image+.cue),无损

(流行、电子、欧洲流行)[CD] o'Ou (oOu) - o'Ou - 1997,FLAC (image+.cue),无损

Rip 创建日志 2015 年 6 月 23 日的 Exact Audio Copy V1.1 EAC 报告于 2016 年 6 月 28 日,8:25oOu / oOuDisk 驱动器:PLEXTOR DVDR PX-712A 适配器:8 ID:0 读取模式:使用 Exact Stream 的有效性:是禁用音频缓存:是使用指针 C2:否 读取偏移校正:30 读取导入和导出区域的能力:否 用静音填充丢失的样本:是 删除带有前导和结束静音的块:否 在 CRC 计算中使用了空样本:是 接口:安装外部 ASPI 接口 输出格式:自定义编码器 选择的比特率:128 kBit/s 质量:高 添加 ID3 标签:无 压缩实用程序:C:\Program Files\Exact Audio Copy\FLAC\FLAC.EXE其他参数:-V -8 -T "流派=%genre%" -T "艺术家=%artist%" -T "标题=%title%" -T "专辑=%albumtitle%" -T "日期=%year%" -T "曲目编号=%tracknr %" -T "Comment=%comment%" % 提取的 CD 曲目的来源%TOC |开始|持续时间 |第一产业|结束扇区------------------------------------------------ ---------------------- 1 | 0:00.00 | 3:51.27 | 0 | 17351 2 | 3:51.27 | 3:33.00 | 17352 | 33326 3 | 33326 3 7:24.27 | 3:12.68 | 33327 | 33327 47794 4 | 10:37.20 | 3:23.55 | 47795 | 47795 63074 5 | 14:01.00 | 3:32.17 | 63075 | 63075 78991 6 | 17:33.17 | 3:37.18 | 78992 | 95284 7 | 21:10.35 | 3:55.40 | 95285 | 95285 112949 8 | 25:06.00 | 3:38.02 | 112950 | 112950 129301 9 | 28:44.02 | 3:40.53 | 129302 | 145854 10 | 32:24.55 | 32:24.55 3:33.42 | 145855 | 161871 11 | 35:58.22 | 3:39.35 | 161872 | 178331 12 | 39:37.57 | 3:35.50 | 178332 | 194506 13 | 43:13.32 | 4:33.30 | 194507 | 194507 215011 14 | 47:46.62 | 3:12.25 | 215012 | 215012 229436 15 | 50:59.12 | 3:11.55 | 229437 | 229437 243816 16 | 54:10.67 | 3:52.13 | 243817 | 243817 261229 17 | 58:03.05 | 3:42.65 | 261230 | 261230 277944 18 | 61:45.70 | 3:18.47 | 277945 | 277945 292841检索范围特征和错误消息选定的范围文件名 I:\MOI_RAZDACI\oOu1997\oOu_oOu_1997\oOu - oOu.wav 峰值电平 98.8% 检索率 10.7 X 范围质量 100.0% 测试 CRC C971B719 复制 CRC C971B719 复制 .​​.. OK 未发生错误Accur ateRip:摘要曲目1 数据库中缺少Track 2 数据库中缺少Track 4 数据库中缺少Track 5 数据库中缺少Track 6 数据库中缺少Track 7 数据库中缺少Track 9 数据库中缺少Track 10 数据库中缺少Track 11数据库中缺少曲目 12 数据库中缺少曲目 13 数据库中缺少曲目 14 数据库中缺少曲目 15 数据库中缺少曲目 16 数据库中缺少曲目 17 数据库中缺少曲目 18 没有一个曲目在报告的数据库 AccurateRipEnd-- -- CUETools DB Plugin V2.1.6[CTDB TOCID: XJdd6oXLC_u73v227Ch2DTxqh1Q-] 发现提交结果:已提交跟踪 | CTDB 状态 1 | (2/2) 准确撕开2 | (2/2) 准确撕开 3 | (2/2) 准确撕开 4 | (2/2) 准确撕开 5 | (2/2) 准确撕开 6 | (2/2) 准确撕开 7 | (2/2) 准确撕开 8 | (2/2) 准确撕开 9 | (2/2) 准确撕开 10 | (2/2) 准确撕开 11 | (2/2) 准确撕开 12 | (2/2) 准确撕开 13 | (2/2) 准确撕开 14 | (2/2) 准确撕开 15 | (2/2) 准确撕开 16 | (2/2) 准确撕开 17 | (2/2) 准确撕开 18 | (2/2) 准确破解====报告校验和67FDC441A8DE96E69228C2A919AD7BEC2F8296632F2A7B1A45A352AFE54CD1E4 ==== 索引卡内容 (.CUE) REM 类型 PopREM 日期 1997REM 光盘 090F4012REM 评论“ExactAudioCopy v1.1”目录 0000000001087PERFORMER“oOu”标题“oOu”文件“oOu - oOu.flac”WAVE TRACK 01 音频标题“Iso Ikava”表演者“oOu”ISRC FIARA 9700034 索引 01 00: 00:00 曲目 02 音频标题“Kaduilla Tuulee”表演者“oOu”ISRC FIARA9700001 索引 00 03:50:06 索引 01 03:51:27 曲目 03 音频标题“Huku Rytmiin”表演者“oOu”ISRC FIARA9700035 索引 00 07:23 :06 索引 01 07:24:27 轨道 04 音频标题“Outoa Rakkautta”表演者“oOu”ISRC FIARA9700036 索引 00 10:35:70 索引 01 10:37:20 轨道 05 音频标题“Olet Kaikki Mita Tiedan”表演者“oO u“ ISRC Fiara9700037索引00 13:59:44索引01 14:01:00轨道06音频标题“ Kuka Lupasikaan”表演者“ OOU” ISRC FIARA9600057索引00 00 17:31:63索引01 17:33:17 track 07 audio t track t ITLE" Kaiken Aikaa" 表演者 "oOu" ISRC FIARA9700038 索引 00 21:09:06 索引 01 21:10:35 曲目 08 音频标题 "Ennen Kuin Huomaatkaan" 表演者 "oOu" ISRC FIARA9700039 索引 00 25:04:50 索引 0 1 25 :06 :00 轨道 09 音频标题“Lentaa Saat”表演者“oOu”ISRC FIARA9700040 索引 00 28:42:47 索引 01 28:44:02 轨道 10 音频标题“Sa Meet”表演者“oOu”ISRC FIARA9700041 索引 00 32: 23 : 28 索引 01 32:24:55 轨道 11 音频标题“On Meil​​la Aikaa”表演者“oOu” ISRC FIARA9700042 索引 00 35:56:68 索引 01 35:58:22 轨道 12 音频标题“Pintaa Syvemmalle”表演者“oOu” " ISRC FIARA9700043 索引 00 39:36:33 索引 01 39:37:57 曲目 13 音频标题“Kuka Lupasikaan(慢速编辑)”表演者“oOu” ISRC FIARA9600058 索引 00 43:04:19 索引 01 43:13:32 曲目14 AUD IO TITLE "Kaduilla Tuulee (Discotuuli Mix)" PERFORMER "oOu" ISRC FIARA9700002 INDEX 00 47:45:26 INDEX 01 47:46:62 TRACK 15 AUDIO TITLE "Huku Rytmiin (Cobacabana)" PERFORMER "oOu" ISRC FIARA970004 4 指标00 50: 57:53 索引 01 50:59:12 轨道 16 音频标题“Pintaa Syvemmalle (Direktiivi Mix)” 表演者“oOu” ISRC FIARA9700045 索引 00 54:09:17 索引 01 54:10:67 轨道 17 音频标题“ Kaiken Aikaa ( Dance Mix)" 表演者 "oOu" ISRC FIARA9700046 索引 00 58:01:52 索引 01 58:03:05 曲目 18 音频标题 "Lentaa Saat (Happy Hc)" 表演者 "oOu" ISRC FIARA9700047 索引 00 61:44 :56 索引 01 61:45:70 质量检查日志 -----------------------不要修改此文件------------------------ --执行者:auCDtect 任务管理器,版本。 1.5.1RC6 版本 1.5.1.7版权所有 (c) 2008-2010 y-soft。保留所有权利http://y-soft.orgANALYZER:auCDtect:CD 记录真实性检测器,版本 0.8.2 版权所有 (c) 2004 Oleg Berngardt。保留所有权利。版权所有 (c) 2004 Alexander Djourik。保留所有权利。文件:oOu - oOu.flac 大小:487999281 哈希值:F0849C79AD9CDE9F84E16F48EBD308A7 准确性:-m0 结论:CDDA 100% 签名:89409751C95B52F3CF120B83A6B434BBFA90F64E 频谱截图

(流行、电子、欧洲流行)[CD] o'Ou (oOu) - o'Ou - 1997,FLAC (image+.cue),无损

请先登录

回复 (流行、电子、欧洲流行)[CD] o'Ou (oOu) - o'Ou - 1997,FLAC (image+.cue),无损

VIP专属快捷回复:

支持高兴激动给力加油围观路过感动抢座
轩轩音乐所有信息均由网友转载自互联网,没有存储任何形式的文件供下载,请下载试看后删除,请购买正版支持正版。本站内容如有侵权请联系:k42d.rr.nu, 我们会在收到您的邮件后立即删除!
主题数87279回复数72444用户数17262
最新VIP

酸奶文 开通了 包月VIP
热心睿 开通了 季度VIP
丁家祥 开通了 包月VIP
咖啡甜美 开通了 季度VIP
辛勤悟空 开通了 季度VIP
怡然诺言 开通了 包月VIP
典雅骅 开通了 年费VIP
花羽 开通了 包月VIP
酸奶文 开通了 包月VIP
热心睿 开通了 季度VIP

Copyright © 2023 轩轩音乐 XX.CQE.CC
POWER BY CleenBB x3.4 PROCESSED: 16.3