奇异果

(流行、R'n'B、鞑靼流行)[CD] Idelia - Collection (2 CD) - 2006-2007,FLAC(曲目+.cue),无损

奇异果 2023-12-28 804/0
轩轩音乐提供的(流行、R'n'B、鞑靼流行)[CD] Idelia - Collection (2 CD) - 2006-2007,FLAC(曲目+.cue),无损下载地址来源于网络分享,网络资源均有时效性,请尽快下载(流行、R'n'B、鞑靼流行)[CD] Idelia - Collection (2 CD) - 2006-2007,FLAC(曲目+.cue),无损,或保存(流行、R'n'B、鞑靼流行)[CD] Idelia - Collection (2 CD) - 2006-2007,FLAC(曲目+.cue),无损到自己的网盘避免资源失效。
(流行、R'n'B、鞑靼流行)[CD] Idelia - Collection (2 CD) - 2006-2007,FLAC(曲目+.cue),无损(1.11 GB)下载
磁力链:
隐藏内容,请登录后查看
种子:
隐藏内容,请登录后查看

Idelia - Collection

(流行、R'n'B、鞑靼流行)[CD] Idelia - Collection (2 CD) - 2006-2007,FLAC(曲目+.cue),无损

风格:流行、R'n'B、鞑靼流行 媒体:CD 光盘原产国(发行):俄罗斯、鞑靼斯坦 出版年份:2006-2007 发行商(厂牌):Bars Records \ Oscar Records 表演者国家(群展):俄罗斯、鞑靼斯坦 音频编解码器:FLAC (*.flac) 翻录类型:曲目+.cue 总时长:01:55:15 来源:自己的光盘 分发内容中是否可以扫描:是 加莱姆格 (2006)

(流行、R'n'B、鞑靼流行)[CD] Idelia - Collection (2 CD) - 2006-2007,FLAC(曲目+.cue),无损

出版年份:2006 年 目录号:BMCD 2006-097 持续时间:01:04:29 曲目列表: 01. 加莱姆格... 02.新凯达? 03. 汤格提兹莱克 04. 库玛·阿蒂姆南 05. 阿克·海亚尔 06. 爱查奇拉 07. Sahralarga yalgyz chyk kyna...(壮举。迪恩王子) 08.新凯达? (阿德尔混音) 09. Kuma artymnan(DJ Bulat Ziganshin 混音) 10. Sikhri Koy (壮举. 迪恩王子) 11. 去月球 12.香草天空 13.你在哪里? 14. Galemge...(卡拉 OK) Rip 创建日志 Exact Audio Copy V1.3 自 2016 年 9 月 2 日起 EAC 报告于 2022 年 3 月 26 日执行提取,13:25Idelia / GalemgeDisk 驱动器:ASUS DRW-24B5ST 适配器:1 ID:0 读取模式:有效性精确流的使用:是禁用音频缓存:是使用 C2 指针:否 读取偏移校正:6 读取导入和导出区域的能力:否 用静音填充丢失的样本:是 删除开头和结尾处静音的块:否 在 CRC 计算中使用了空样本:是 接口:用于 Win NT/2000 的内置 Win32 接口 间隙处理:添加到上一个轨道 输出格式:自定义编码器 选择的比特率:128 kBit/s 质量:高 添加 ID3 标签:无 压缩实用程序:C:\Program Files (x86 )\Exact Audio Copy\Flac\flac.exe 附加参数: -V -8 -T "Genre=%genre%" -T "Artist=%artist%" -T "Title=%title%" -T "Album= %albumtitle%" -T "Date=%year%" -T "Tracknumber=%tracknr %" -T "Comment=%comment%" 弹出 CD 曲目的 %source%TOC |开始|持续时间 |第一产业|结束扇区------------------------------------------------ ---------------------- 1 | 0:00.00 | 4:29.64 | 0 | 20238 2 | 4:29.64 | 4:19.02 | 20239 | 20239 39665 3 | 8:48.66 | 5:01.00 | 39666 | 62240 4 | 13:49.66 | 4:31.52 | 62241 | 62241 82617 5 | 18:21.43 | 4:20.12 | 82618 | 102129 6 | 22:41.55 | 4:28.39 | 102130 | 122268 7 | 27:10.19 | 5:12.15 | 122269 | 122269 145683 8 | 32:22.34 | 4:50.61 | 145684 | 167494 9 | 37:13.20 | 5:06.53 | 167495 | 167495 190497 10 | 42:19.73 | 4:43.49 | 190498 | 211771 11 | 47:03.47 | 4:30.28 | 211772 | 211772 232049 12 | 51:34.00 | 4:40.45 | 232050 | 232050 253094 13 | 56:14.45 | 3:46.53 | 253095 | 253095 270097 14 | 60:01.23 | 4:28.51 | 270098 | 270098 290248Track 1 文件名 C:\Idelia - Collection (2006-2007) [FLAC]\2006 - Galemge [BMCD 2006-097]\01。 Galemge....wav 预间隙长度 0:00:02.00 峰值电平 97.3% 提取速度 5.2 X 轨道质量 100.0% CRC 测试 7F7132C5 CRC 复制 7F7132C5 在 AccurateRip 数据库中找不到轨道 正在复制... OKTrack 2 文件名 C: \Idelia - Collection (2006-2007) [FLAC]\2006 - Galemge [BMCD 2006-097]\02。 Sin kaida.wav 预间隙长度 0:00:02.00 峰值电平 86.6% 提取速度 5.8 X 轨道质量 100.0% 测试 CRC 518ACF91 复制 CRC 518ACF91 在 AccurateRip 数据库中找不到轨道 正在复制... OKTrack 3 文件名 C:\Idelia - 收藏(2006-2007)[FLAC]\2006 - Galemge [BMCD 2006-097]\03。 Tonge tizlek.wav 预间隙长度 0:00:02.00 峰值水平 97.0% 检索速度 6.3 X 轨道质量 100.0% 测试 CRC 8ABBDC59 复制 CRC 8ABBDC59 在 AccurateRip 数据库中找不到轨道 正在复制... OKTrack 4 文件名 C:\Idelia - 收藏(2006-2007)[FLAC]\2006 - Galemge [BMCD 2006-097]\04。 Kuma artymnan.wav 预间隙长度 0:00:02.00 峰值水平 90.0% 提取速度 6.8 X 轨道质量 100.0% 测试 CRC 7096D1AD 复制 CRC 7096D1AD 在 AccurateRip 数据库中找不到轨道 正在复制... OKTrack 5 文件名 C:\Idelia -收藏(2006-2007)[FLAC]\2006 - Galemge [BMCD 2006-097]\05。 Ak hyyal.wav 预间隙长度 0:00:02.00 峰值电平 96.4% 提取速度 7.1 X 轨道质量 100.0% CRC 测试 D75B0F1C CRC 复制 D75B0F1C 在 AccurateRip 数据库中找不到轨道 正在复制... OKTrack 6 文件名 C:\Idelia - 收藏(2006-2007)[FLAC]\2006 - Galemge [BMCD 2006-097]\06。 Ay chakyra.wav 预间隙长度 0:00:02.00 峰值水平 96.9% 提取速度 7.5 X 轨道质量 100.0% 测试 CRC 5FD7B907 复制 CRC 5FD7B907 在 AccurateRip 数据库中找不到轨道 正在复制... OKTrack 7 文件名 C:\Idelia - 收藏(2006-2007)[FLAC]\2006 - Galemge [BMCD 2006-097]\07。 Sahralarga yalgyz chyk kyna... (feat. Prince Dean).wav 预间隙长度 0:00:02.00 峰值电平 92.4% 提取速度 8.0 X 轨道质量 100.0% CRC 测试 FE80B842 CRC 复制 FE80B842 在 AccurateRip 数据库中找不到轨道 复制... OKTrack 8 文件名 C:\Idelia - Collection (2006-2007) [FLAC]\2006 - Galemge [BMCD 2006-097]\08。 Sin kaida (Adel 混音).wav 预间隙长度 0:00:02.00 峰值电平 97.7% 提取速度 7.6 X 轨道质量 99.9% 测试 CRC 742D39D1 复制 CRC 742D39D1 在 AccurateRip 数据库中找不到轨道 正在复制... OKTrack 9 文件名称 C: \Idelia - Collection (2006-2007) [FLAC]\2006 - Galemge [BMCD 2006-097]\09。 Kuma artymnan(DJ Bulat Ziganshin 混音).wav 预间隙长度 0:00:02.00 峰值电平 89.4% 提取速度 8.7 X 轨道质量 100.0% 测试 CRC 152072D5 复制 CRC 152072D5 在 AccurateRip 数据库中找不到轨道 正在复制... OKTrack 10 文件名 C:\Idelia - Collection (2006-2007) [FLAC]\2006 - Galemge [BMCD 2006-097]\10。 Sihri koy (feat. Prince Dean).wav 预间隙长度 0:00:02.00 峰值水平 95.4% 检索速度 9.0 X 轨道质量 100.0% 测试 CRC 58651043 复制 CRC 58651043 在 AccurateRip 数据库中找不到轨道 正在复制... OKTrack 11文件名 C:\Idelia - Collection (2006-2007) [FLAC]\2006 - Galemge [BMCD 2006-097]\11. To the Moon.wav 预间隙长度 0:00:02.00 峰值电平 96.0% 检索速度 9.3 X 轨道质量 100.0% 测试 CRC 74A0CB17 复制 CRC 74A0CB17 在 AccurateRip 数据库中找不到轨道 正在复制... OKTrack 12 文件名 C:\ Idelia - Collection (2006-2007) [FLAC]\2006 - Galemge [BMCD 2006-097]\12。 Vanilla sky.wav 预间隙长度 0:00:02.00 峰值水平 79.9% 检索速度 9.5 X 轨道质量 100.0% 测试 CRC 78EE71BB 复制 CRC 78EE71BB AccurateRip 数据库中未找到轨道 正在复制... OKTrack 13 文件名 C:\Idelia - 收藏(2006-2007)[FLAC]\2006 - Galemge [BMCD 2006-097]\13。 Where are you.wav 预间隙长度 0:00:02.00 峰值电平 94.5% 检索速度 8.4 X 轨道质量 99.9% 测试 CRC 70DF98FA 复制 CRC 70DF98FA 在 AccurateRip 数据库中找不到轨道 正在复制... OKTrack 14 文件名 C:\ Idelia - Collection (2006-2007) [FLAC]\2006 - Galemge [BMCD 2006-097]\14。 Galemge...(卡拉 OK).wav 预间隙长度 0:00:02.00 峰值电平 87.2% 检索速度 9.8 X 曲目质量 100.0% 测试 CRC 0DAC2B2D 复制 CRC 0DAC2B2D 在 AccurateRip 数据库中找不到曲目 正在复制... OK没有曲目数据库中 AccurateRip 未发生错误报告结束----CUETools DB Plugin V2.1.6[CTDB TOCID: gzASeayKB0_ELEu1WAQ6kY5j_ys-] 数据库中不存在磁盘提交结果:gzASeayKB0_ELEu1WAQ6kY5j_ys- 已上传==== 报告校验和 56726D4F03 3FB37A4B1E965C3 939CD951FC9AD6F216135A118B79FC3D22E8605==== 索引卡内容 (.CUE) REM 日期 2006REM 光盘 AA0F1D0EREM 评论“ExactAudioCopy v1.3”表演者“Idelia”标题“Galemge”REM 作曲家“”文件“01.Galemge....wav”WAVE TRACK 01 音频标题“Galemge...”表演者“Idelia” REM Composer "" FLAGS DCP INDEX 01 00:00:00 TRACK 02 AUDIO TITLE "Shin kaida?"表演者“Idelia”REM COMPOSER“”标志 DCP INDEX 00 04:27:64FILE“02.Sin kaidah.wav”WAVE INDEX 01 00:00:00 TRACK 03 音频标题“Tonge tizlek”表演者“Idelia”REM COMPOSER“”标志DCP INDEX 00 04:17:02FILE "03.Tonge tizlek.wav" WAVE INDEX 01 00:00:00 TRACK 04 AUDIO TITLE "Kuma artymnan" PERFORMER "Idelia" REM Composer "" FLAGS DCP INDEX 00 04:59:00FILE " 04. Kuma artymnan.wav" WAVE INDEX 01 00:00:00 TRACK 05 AUDIO TITLE "Ak hyal" PERFORMER "Idelia" REM Composer "" FLAGS DCP INDEX 00 04:29:52FILE "05. Ak hyal.wav" WAVE INDEX 01 00:00:00 TRACK 06 AUDIO TITLE“Ay Chakyra”PERFORMER“Idelia”REM Composer“”FLAGS DCP INDEX 00 04:18:12FILE“06.Ay Chakyra.wav”WAVE INDEX 01 00:00:00 TRACK 07 AUDIO标题“Sahralarga yalgyz chyk kyna...(壮举。迪恩王子)”表演者“Idelia”REM Composer“”标记 DCP INDEX 00 04:26:39FILE“07.Sahralarga yalgyz chyk kyna...(壮举。迪恩王子)。 wav" WAVE INDEX 01 00:00:00 TRACK 08 AUDIO TITLE "新凯达? (阿德尔混音)" PERFORMER "Idelia" REM COMPOSER "" FLAGS DCP INDEX 00 05:10:15FILE "08. Shin Kaida (Adel 混音).wav" WAVE INDEX 01 00:00:00 TRACK 09 音频标题 "Kuma artymnan (DJ Bulat Ziganshin 混音)" PERFORMER "Idelia" REM COMPOSER "" FLAGS DCP INDEX 00 04:48:61FILE ”09. Kuma artymnan(DJ Bulat Ziganshin 混音).wav" WAVE INDEX 01 00:00:00 TRACK 10 AUDIO TITLE "Sikhri koy (feat. Prince Dean)" PERFORMER "Idelia" REM Composer "" FLAGS DCP INDEX 00 05:04: 53文件“10. Sikhri koy (feat. Prince Dean).wav" WAVE INDEX 01 00:00:00 TRACK 11 AUDIO TITLE "To the Moon" PERFORMER "Idelia" REM Composer "" FLAGS DCP INDEX 00 04:41:49FILE "11. To the Moon.wav" WAVE INDEX 01 00:00:00 TRACK 12 AUDIO TITLE "Vanilla sky" PERFORMER "Idelia" REM Composer "" FLAGS DCP INDEX 00 04:28:28FILE "12. Vanilla sky.wav" WAVE INDEX 01 00:00:00 TRACK 13 AUDIO TITLE "你在哪里?" PERFORMER "Idelia" REM Composer "" FLAGS DCP INDEX 00 04:38:45FILE "13.你在哪里.wav" WAVE INDEX 01 00:00:00 TRACK 14 AUDIO TITLE "Galemge... (karaoke)" PERFORMER "Idelia" REM Composer "" FLAGS DCP INDEX 00 03:44:53FILE "14. Galemge...(卡拉 OK).wav" WAVE INDEX 01 00:00:00 鞑靼女孩 (2007)

(流行、R'n'B、鞑靼流行)[CD] Idelia - Collection (2 CD) - 2006-2007,FLAC(曲目+.cue),无损

出版年份:2007 年 目录号:ORCD 07-075 持续时间:00:50:45 曲目列表: 01.鞑靼女孩(壮举。迪恩王子) 02. 舌头 03. Chibarkey(壮举。ITTIFAQ、T+B、DJ Darm) 04. Uzene(壮举。ITTIFAQ) 05. Esir sin, esir min(壮举。迪恩王子) 06. 骗子(壮举。迪恩王子) 07. 汤格提兹莱克 08. 没有伯格 09. 阿巴加 (壮举. 迪恩王子) 10.艾查奇拉 11. Anlatalmyim (壮举. 迪恩王子) 12. 加莱姆格 13. 鞑靼女孩(Adel 混音) Rip 创建日志 Exact Audio Copy V1.3 自 2016 年 9 月 2 日起 EAC 于 2022 年 3 月 26 日 13:48 执行提取报告 Idelia / Tatar 女孩 驱动器:ASUS DRW-24B5ST 适配器:1 ID:0 读取模式:可靠性 精确流的使用:是禁用音频缓存:是 使用指针 C2:否 读取偏移校正:6 读取导入和导出区域的能力:否 用静音填充丢失的样本:是 删除开头和结尾处带有静音的块:否 中使用了空样本CRC 计算:是 接口:用于 Win NT/2000 的内置 Win32 接口 处理间隙:添加到上一个轨道 输出格式:自定义编码器 选择的比特率:128 kBit/s 质量:高 添加 ID3 标签:无 压缩实用程序:C:\Program文件 (x86)\Exact Audio Copy\Flac\flac.exe 附加参数:-V -8 - T "Genre=%genre%" -T "Artist=%artist%" -T "Title=%title%" -T "Album=%albumtitle%" -T "Date=%year%" -T "Tracknumber=% tracknr%" -T "Comment=%comment%" 弹出 CD 曲目的 %source%TOC |开始|持续时间 |第一产业|结束扇区------------------------------------------------ ---------------------- 1 | 0:00.00 | 3:49.71 | 0 | 17245 2 | 3:49.71 | 3:26.73 | 17246 | 17246 32768 3 | 7:16.69 | 3:07.37 | 32769 | 32769 46830 4 | 10:24.31 | 3:15.72 | 46831 | 46831 61527 5 | 13:40.28 | 4:14.68 | 61528 | 80645 6 | 17:55.21 | 2:56.38 | 80646 | 93883 7 | 20:51.59 | 4:58.22 | 93884 | 116255 8 | 25:50.06 | 3:46.68 | 116256 | 116256 133273 9 | 29:36.74 | 4:09.10 | 133274 | 151958 10 | 33:46.09 | 4:27.66 | 151959 | 151959 172049 11 | 38:14.00 | 4:32.38 | 172050 | 172050 192487 12 | 42:46.38 | 4:29.42 | 192488 | 212704 13 | 47:16.05 | 3:29.16 | 212705 | 212705 228395Track 1 文件名 C:\Idelia - Collection (2006-2007) [FLAC]\2007 - 鞑靼女孩 [ORCD 07-075]\01。鞑靼女孩 (feat. Prince Dean).wav 预间隙长度 0:00:02.00 峰值水平 99.0% 检索速度 4.6 X 曲目质量 100.0% 测试 CRC 2A2ED61F 复制 CRC 2A2ED61F 在 AccurateRip 数据库中找不到曲目 正在复制... OKTrack 2文件名 C:\Idelia - Collection (2006-2007) [FLAC]\2007 - 鞑靼女孩 [ORCD 07-075]\02. Tonge uennar.wav 峰值水平 93.8% 检索速度 5.0 X 轨道质量 100.0% CRC 测试 D4E5D564 CRC 副本 D4E5D564 在 AccurateRip 数据库中找不到轨道 正在复制... OKTrack 3 文件名 C:\Idelia - Collection (2006-2007) [FLAC ] \2007 - 鞑靼女孩[ORCD 07-075]\03。 Chibarkey (feat. ITTIFAQ、T+B、DJ Darm).wav 峰值电平 97.2% 检索速度 5.3 X 曲目质量 100.0% CRC 测试 CE6E4030 CRC 副本 CE6E4030 在 AccurateRip 数据库中找不到曲目 正在复制... OKTrack 4 文件名 C: \ Idelia - Collection (2006-2007) [FLAC]\2007 - 鞑靼女孩 [ORCD 07-075]\04. Uzene (feat. ITTIFAQ).wav 峰值水平 96.7% 检索速度 5.7 X 曲目质量 100.0% 测试 CRC 4AFA8433 复制 CRC 4AFA8433 在 AccurateRip 数据库中找不到曲目 正在复制... OKTrack 5 文件名 C:\Idelia - Collection (2006- 2007 ) [FLAC]\2007 - 鞑靼女孩 [ORCD 07-075]\05. Esir syn, esir min (feat. Prince Dean).wav 峰值电平 98.0% 提取速度 6.2 X 轨道质量 100.0% 测试 CRC 0790B3D6 复制 CRC 0790B3D6 在 AccurateRip 数据库中找不到轨道 正在复制... OKTrack 6 文件名 C:\Idelia - 收藏 (2006-2007) [FLAC]\2007 - 鞑靼女孩 [ORCD 07-075]\06。 A hustler (feat. Prince Dean).wav 峰值水平 96.2% 检索速度 6.2 X 曲目质量 100.0% 测试 CRC 0A74DEF8 复制 CRC 0A74DEF8 在 AccurateRip 数据库中找不到曲目 正在复制... OKTrack 7 文件名 C:\Idelia - Collection ( 2006 -2007) [FLAC]\2007 - 鞑靼女孩 [ORCD 07-075]\07. Tonge tizlek.wav 峰值水平 95.3% 检索速度 7.1 X 轨道质量 100.0% CRC 测试 DEB47E43 CRC 复制 DEB47E43 在 AccurateRip 数据库中找不到轨道 正在复制... OKTrack 8 文件名 C:\Idelia - Collection (2006-2007) [FLAC ] \2007 - 鞑靼女孩[ORCD 07-075]\08。不带 berge.wav 峰值水平 97.5% 检索速度 7.2 X 曲目质量 100.0% CRC 测试 13FAB278 CRC 副本 13FAB278 在 AccurateRip 数据库中找不到曲目 正在复制... OKTrack 9 文件名 C:\Idelia - Collection (2006-2007) [FLAC ] \2007 - 鞑靼女孩[ORCD 07-075]\09。 Abaga (feat. Prince Dean).wav 峰值水平 96.3% 检索速度 7.6 X 曲目质量 100.0% 测试 CRC 556038AA 复制 CRC 556038AA AccurateRip 数据库中未找到曲目 正在复制... OKTrack 10 文件名 C:\Idelia - Collection (2006) - 2007) [FLAC]\2007 - 鞑靼女孩 [ORCD 07-075]\10. Ay chakyra.wav 峰值水平 96.9% 检索速度 7.1 X 曲目质量 99.9% 测试 CRC 15F86DEE 复制 CRC 15F86DEE 在 AccurateRip 数据库中找不到曲目 正在复制... OKTrack 11 文件名 C:\Idelia - Collection (2006-2007) [FLAC ] \2007 - 鞑靼女孩[ORCD 07-075]\11。 Anlatalmyym (feat. Prince Dean).wav 峰值水平 97.8% 检索速度 8.3 X 曲目质量 100.0% CRC 测试 FBDFEF8E CRC 副本 FBDFEF8E 在 AccurateRip 数据库中找不到曲目 正在复制... OKTrack 12 文件名 C:\Idelia - Collection (2006) - 2007) [FLAC]\2007 - 鞑靼女孩 [ORCD 07-075]\12. Galemge.wav 峰值水平 95.6% 检索速度 6.9 X 轨道质量 99.9% CRC 测试 E23AA1D1 CRC 副本 E23AA1D1 在 AccurateRip 数据库中找不到轨道 正在复制... OKTrack 13 文件名 C:\Idelia - Collection (2006-2007) [FLAC] \ 2007 - 鞑靼女孩 [ORCD 07-075]\13.鞑靼女孩 (Adel 混音).wav 峰值水平 95.6% 检索速度 8.4 X 曲目质量 100.0% CRC 测试 2F3A8572 CRC 复制 2F3A8572 在 AccurateRip 数据库中找不到曲目 正在复制... OK AccurateRip 数据库中没有曲目 没有发生错误 结束报告--- - CUETools DB Plugin V2.1.6[CTDB TOCID: IGTQ0gKF42hGmm6FKc7nJUYTLDg-] 数据库中不存在磁盘提交结果:IGTQ0gKF42hGmm6FKc7nJUYTLDg- 已上传==== 报告校验和 40AA3A222D1F743F9F96D14 6044BDAF0 6FB4195384BF8F44DD6E1F51D645AEE7==== 索引卡内容 (.CUE) REM DATE 2007REM DISCID B80BE50DREM COMMENT“ExactAudioCopy v1.3”PERFORMER“Idelia”TITLE“鞑靼女孩”REM COMPOSER“”FILE“01.鞑靼女孩(壮举。迪恩王子).wav”WAVE TRACK 01 AUDIO TITLE“鞑靼女孩(壮举) .Prince Dean)" 表演者 "Idelia" REM COMPOSER "" INDEX 01 00:00:00FILE "02.Tonge uennar.wav" WAVE TRACK 02 AUDIO TITLE "Tonge uennar" 表演者 "Idelia" REM COMPOSER "" INDEX 01 00:00 :00FILE "03. Chibarkey (feat. ITTIFAQ, T+B, DJ Darm).wav" WAVE TRACK 03 AUDIO TITLE "Chiberkey (feat. ITTIFAQ, T+B, DJ Darm)" 表演者 "Idelia" REM Composer "" INDEX 01 00:00:00FILE "04. Uzene (feat. ITTIFAQ).wav" WAVE TRACK 04 AUDIO TITLE "Uzene (feat. ITTIFAQ)" PERFORMER "Idelia" REM Composer "" INDEX 01 00:00:00FILE "05. Esir sin, esir min (feat. Prince Dean).wav" WAVE TRACK 05 AUDIO TITLE "Esir sin, esir min (feat. Prince Dean)" PERFORMER "Idelia" REM Composer "" INDEX 01 00:00:00FILE "06. A骗子 (feat. 迪恩王子).wav" WAVE TRACK 06 AUDIO TITLE "一个骗子 (feat. Prince Dean).wav" WAVE TRACK 06 AUDIO TITLE迪恩王子)" 表演者 "Idelia" REM 作曲家 "" INDEX 01 00:00:00FILE "07. Tonge tizlek.wav" WAVE TRACK 07 音频标题 "Tonge tizlek" 表演者 "Idelia" REM COMPOSER "" INDEX 01 00:00:00FILE "08.没有 berge.wav" WAVE TRACK 08 AUDIO TITLE "没有 berge" PERFORMER "Idelia" REM COMPOSER "" INDEX 01 00:00:00FILE "09. Abaga (feat. Prince Dean).wav" WAVE TRACK 09 AUDIO TITLE "Abaga (feat. Prince Dean)" PERFORMER "Idelia" REM Composer "" INDEX 01 00:00:00FILE "10. Ay Chakyra.wav" WAVE TRACK 10 音频标题 "Ay Chakyra" 表演者 "Idelia" REM COMPOSER "" INDEX 01 00:00:00FILE "11. Anlatalmyym (feat. Prince Dean).wav" WAVE TRACK 11 AUDIO TITLE "Anlatalmyym (feat. Prince Dean)" PERFORMER "Idelia" REM Composer "" INDEX 01 00:00:00FILE "12. Galemge.wav" WAVE TRACK 12 AUDIO TITLE "Galemge" PERFORMER "Idelia" REM Composer "" INDEX 01 00:00:00FILE "13.鞑靼女孩 (阿德尔混音).wav" WAVE TRACK 13 AUDIO TITLE "鞑靼女孩 (阿德尔混音)" PERFORMER "Idelia" REM COMPOSER "" INDEX 01 00:00:00

请先登录

回复 (流行、R'n'B、鞑靼流行)[CD] Idelia - Collection (2 CD) - 2006-2007,FLAC(曲目+.cue),无损

VIP专属快捷回复:

支持高兴激动给力加油围观路过感动抢座
轩轩音乐所有信息均由网友转载自互联网,没有存储任何形式的文件供下载,请下载试看后删除,请购买正版支持正版。本站内容如有侵权请联系:k42d.rr.nu, 我们会在收到您的邮件后立即删除!
主题数87279回复数72444用户数17262
最新VIP

酸奶文 开通了 包月VIP
热心睿 开通了 季度VIP
丁家祥 开通了 包月VIP
咖啡甜美 开通了 季度VIP
辛勤悟空 开通了 季度VIP
怡然诺言 开通了 包月VIP
典雅骅 开通了 年费VIP
花羽 开通了 包月VIP
酸奶文 开通了 包月VIP
热心睿 开通了 季度VIP

Copyright © 2023 轩轩音乐 XX.CQE.CC
POWER BY CleenBB x3.4 PROCESSED: 15.4