月光

(流行、电子、嘻哈、摇滚)[CD] VA - Bravo - The Hits 2002 - Part 2 (2 CD) - 2002,FLAC (image+.cue),无损

月光 2024-01-01 567/0
轩轩音乐提供的(流行、电子、嘻哈、摇滚)[CD] VA - Bravo - The Hits 2002 - Part 2 (2 CD) - 2002,FLAC (image+.cue),无损下载地址来源于网络分享,网络资源均有时效性,请尽快下载(流行、电子、嘻哈、摇滚)[CD] VA - Bravo - The Hits 2002 - Part 2 (2 CD) - 2002,FLAC (image+.cue),无损,或保存(流行、电子、嘻哈、摇滚)[CD] VA - Bravo - The Hits 2002 - Part 2 (2 CD) - 2002,FLAC (image+.cue),无损到自己的网盘避免资源失效。
(流行、电子、嘻哈、摇滚)[CD] VA - Bravo - The Hits 2002 - Part 2 (2 CD) - 2002,FLAC (image+.cue),无损(1.24 GB)下载
磁力链:
隐藏内容,请登录后查看

Bravo - The Hits 2002 - 第 2 部分 (2CD)

(流行、电子、嘻哈、摇滚)[CD] VA - Bravo - The Hits 2002 - Part 2 (2 CD) - 2002,FLAC (image+.cue),无损

类型:流行、电子、嘻哈、摇滚 媒体:CD 光盘原产国(发行):德国 出版年份: 2002 发行商(厂牌):索尼音乐媒体 目录号:SMM 510486 2 音频编解码器:FLAC (*.flac) 翻录类型:图像+.cue 持续时间:CD1 01:16:58; CD2 01:14:49 来源:自己的rip 分发内容中是否提供扫描件:是 (600 dpi) 光盘1 曲目列表: 1 番茄酱 - 阿塞雷杰 2 席琳·迪翁 - 我还活着 3 恩里克·伊格莱西亚斯 - 逃亡 4 罗南·基廷 - 如果明天永不到来 5 R. Kelly——世界上最伟大的人 6 胖乔壮举。阿散蒂 - Luv 是什么? 7 白兰地 - 我们呢? 8 达伦·海斯 - 贪得无厌 9 莱斯·阿尔-迪恩 - 戴恩之歌 10 Nelly Furtado - Shit On The Radio(记住那些日子) 11 甜心宝贝 - Freak Like Me 12 乔治·迈克尔 - 弗里克! 13 外星蚂蚁农场 - 犯罪高手 14 凯莉·奥斯本 - 爸爸不说教 15 五分钱 - 你如何提醒我 16 交货日期-国家的青年 17 艾拉妮丝·莫莉塞特 - 双手清洁 18 萨莎 - 这是我的时间 19 韦斯特哈根 - Es Ist An Der Zeit 20 没有天使的壮举。 Mousse T.-我们去睡觉吧 Rip 创建日志 EAC 提取日志文件来自 2020 年 2 月 17 日,19:41 各种艺术家/Bravo:The Hits 2002,第 2 部分 CD1 使用的驱动器:HL-DT-STBD-RE BH16NS40 适配器:1 ID:0读取模式:SecureUtilize 准确流:YesDefeat 音频缓存:是使用 C2 指针 : 否读取偏移校正 : 6 重读导入和导出 : 否用静默填充缺失的偏移样本 : 是删除前导和尾随静默块 : 否用于 CRC 计算的 Null 样本 : 是使用的接口 : Win 的本机 Win32 接口NT 和 2000 使用的输出格式:用户定义的编码器选择的比特率:1024 kBit/s 质量:高添加 ID3 标签:无命令行压缩器:C:\Program Files\Exact Audio Copy\Flac\flac.exe其他命令行选项:-8 -V -T "艺术家 =%artist%" -T "TITLE=%title%" -T "ALBUM=%albumtitle%" -T "DATE=%year%" -T "TRACKNUMBER=%tracknr%" -T "GENRE=%genre% " -T "COMMENT=%comment%" -T "BAND=%albuminterpret%" -T "ALBUMARTIST=%albuminterpret%" -T "COMPOSER=%composer%" %haslyrics%--tag-from-file= LYRICS=“%lyricsfile%”%haslyrics% -T“DISCNUMBER=%cdnumber%”-T“TOTALDISCS=%totalcds%”-T“TOTALTRACKS=%numtracks%”%hascover%--picture="%coverfile%"% hascover% % source% -o %dest%提取的 CD 曲目的 TOC |开始|长度|启动扇区 |结束扇区------------------------------------------------ --------- 1 | 0:00.00 | 3:33.32 | 0 | 16006 2 | 3:33.32 | 3:29.25 | 16007| 31706 3 | 7:02.57 | 3:29.00 | 31707 | 31707 47381 4 | 10:31.57 | 10:31.57 3:35.25 | 47382 | 47382 63531 5 | 14:07.07 | 3:57.00 | 63532 | 81306 6 | 18:04.07 | 3:52.25 | 81307 | 98731 7 | 21:56.32 | 3:59.13 | 98732 | 116669 8 | 25:55.45 | 25:55.45 5:11.37 | 116670 | 116670 140031 9 | 31:07.07 | 3:57.25 | 140032 | 157831 10 | 35:04.32 | 3:55.63 | 157832 | 175519 11 | 39:00.20 | 3:13.12 | 175520 | 190006 12 | 42:13.32 | 4:31.25 | 190007 | 190007 210356 13 | 46:44.57 | 3:27.50 | 210357 | 210357 225931 14 | 50:12.32 | 3:26.13 | 225932 | 225932 241394 15 | 53:38.45 | 3:43.50 | 241395 | 241395 258169 16 | 57:22.20 | 4:17.12 | 258170 | 258170 277456 17 | 277456 61:39.32 | 4:30.50 | 277457 | 277457 297756 18 | 66:10.07 | 3:37.50 | 297757 | 297757 314081 19 | 69:47.57 | 3:55.13 | 314082 | 314082 331719 20 | 73:42.70 | 3:15.08 | 331720 | 331720 346352范围状态和错误所选范围文件名 E:\FLAC MUSIC\Various Artists - Bravo- The Hits 2002, Part 2 CD1.wav 峰值电平 98.5% 提取速度 3.6 X 范围质量 100.0% 测试 CRC FE037604 复制 CRC FE037604 复制 OK 未发生错误AccurateRip 摘要曲目 1准确撕裂(置信度 46) [F58BB4A9] (AR v2)轨道 2 准确撕裂(置信度 45) [BCF24471] (AR v2)轨道 3 准确撕裂(置信度 44) [440B963E] (AR v2)轨道 4 准确撕裂(置信度 43) ) [6B9A48B5] (AR v2)轨道 5 准确撕裂(置信度 45)[3E3D4602] (AR v2)轨道 6 准确撕裂(置信度 45)[C27BF6F7] (AR v2)轨道 7 准确撕裂(置信度 46)[006599CE]( AR v2)轨道 8 准确撕裂(置信度 46)[3BF5DEE2] (AR v2)轨道 9 准确撕裂(置信度 46)[176BA017] (AR v2)轨道 10 准确撕裂(置信度 44)[79C23901] (AR v2)轨道 11准确地撕裂(置信度 44) [0B71BB59] (AR v2)轨道 12 准确地撕裂(置信度 44) [B9A2A97C] (AR v2)轨道 13 准确地撕裂(置信度 44) [877EB946] (AR v2)轨道 14 准确地撕裂(置信度 43) ) [18A74433] (AR v2)轨道 15 准确撕裂(置信度 44)[8E34475C] (AR v2)轨道 16 准确撕裂(置信度 46)[F175AD14] (AR v2)轨道 17 准确撕裂(置信度 42)[E8D0447B]( AR v2)轨道 18 准确地撕裂 (置信度 44) [F06E6A07] (AR v2)轨道 19 准确地撕裂 (置信度 44) [36B85635] (AR v2)轨道 20 准确地撕裂 (置信度 44) [33FD0BB7] (AR v2)所有轨道准确撕开状态报告结束---- CUETools DB Plugin V2.1.6[CTDB TOCID: e9XRtzYAyDhVxGboxgo7hCoDsb8-] 发现提交结果:已提交跟踪 | CTDB 状态 1 | (137/137) 准确撕开2 | (137/137) 准确撕开3 | (135/137) 准确撕开 4 | (131/137) 准确撕开5 | (137/137) 准确撕开 6 | (137/137) 准确撕开 7 | (136/137) 准确撕开8 | (136/137) 准确撕开 9 | (135/137) 准确撕开10 | (136/137) 准确撕开11 | (136/137) 准确撕开12 | (137/137) 准确撕开 13 | (137/137) 准确撕开 14 | (136/137) 准确撕开 15 | (137/137) 准确撕开16 | (137/137) 准确撕开 17 | (135/137) 准确撕开 18 | (137/137) 准确撕开 19 | (136/137) 准确撕20 | (134/137) 准确破解====日志校验和73AABB60FE18BFD2163F2BD4206667D932CC7A9F8E419C51DE4366604FC3665F ==== 索引卡内容 (.CUE) REM GENRE PopREM DATE 2002REM DISCID 11120A14REM COMMENT "ExactAudioCopy v1.3"CATALOG 5099751048626PERFORMER "Various Artists"TITLE "Bravo: The Hits 2002, Part 2 CD1"REM COMPOSER ""FILE "Various Artists - Bravo- The Hits 200 2, Part 2 CD1 .flac" WAVE TRACK 01 AUDIO TITLE "Asereje (Spanglish version)" PERFORMER "Las Ketchup" REM COMPOSER "" ISRC ES5110204224 INDEX 01 00:00:00 TRACK 02 AUDIO TITLE "I'm Alive (Humberto Gatica mix)" PERFORMER " Celine Dion "Rem Composer" "Isrc cac220220200164 Index 00 03:32:18:00 Index 03:33:32 TRACK 03 Audio Title" Escape "Performer" Enrique "Remposer" ISRC USIR101 " 20228 Index 00 07:01:28 INDEX 01 07:02:57 TRACK 04 AUDIO TITLE "If Tomorrow Never Comes" PERFORMER "Ronan Keating" REM Composer "" ISRC GBAKW0201024 INDEX 00 10:30:37 INDEX 01 10:31:57 TRACK 05 AUDIO TITLE "The World's Greatest (广播编辑)" 表演者 "R. Kelly" REM COMPOSER "" INDEX 00 14:05:59 INDEX 01 14:07:07 TRACK 06 音频标题 "什么是 Luv? (干净版)“表演者”胖乔的壮举。 Ashanti" REM COMPOSER "" ISRC USAT20111228 INDEX 00 18:02:67 INDEX 01 18:04:07 TRACK 07 AUDIO TITLE "我们呢? (广播混音)" 表演者 "Brandy" REM COMPOSER "" ISRC USAT20110897 INDEX 00 21:55:10 INDEX 01 21:56:32 TRACK 08 音频标题 "Insatiable" 表演者 "Darren Hayes" REM COMPOSER "" ISRC USSM10114450 INDEX 00 25 :54:17 索引 01 25:55:45 曲目 09 音频标题“Dein Lied(无线电编辑)”表演者“Laith Al-Deen”REM COMPOSER“” ISRC DEE860200172 索引 00 31:06:15 索引 01 31:07:07轨道 10 音频标题“Shit on the Radio (Remember the Days)”表演者“Nelly Furtado”REM COMPOSER“”ISRC USDW10021997 索引 00 35:03:22 索引 01 35:04:32 轨道 11 音频标题“Freak Like Me”表演者“Sugababes” REM COMPOSER “” ISRC GBAAN0201033 INDEX 00 38:58:48 INDEX 01 39:00:20 TRACK 12 AUDIO TITLE “Freeek! (广播编辑)" 表演者 "George Michael" REM COMPOSER "" ISRC GBAKW0201001 INDEX 00 42:12:28 INDEX 01 42:13:32 TRACK 13 AUDIO TITLE "Smoothcrime" 表演者 "Alien Ant Farm" REM COMPOSER "" ISRC USDW10022224 INDEX 00 46:43:55 INDEX 01 46:44:57 轨道 14 音频标题“Papa Don't Preach”表演者“Kelly Osbourne”REM Composer“”ISRC USSM10207183 INDEX 00 50:10:69 INDEX 01 50:12:32轨道 15 音频标题“How You Remind Me”表演者“Nickelback”REM Composer“” ISRC NLA320119533 索引 00 53:37:22 索引 01 53:38:45 轨道 16 音频标题“Youth of the Nation”表演者“P.O.D.”REM Composer "" ISRC USAT20106877 索引 00 57:21:12 索引 01 57:22:20 曲目 17 音频标题“双手清洁”表演者“Alanis Morissette”REM 作曲家 "" ISRC USMV20100234 索引 00 61:38:11 索引 01 61:39: 32 轨道 18 音频标题“这是我的时间(无线电剪辑)”表演者“Sasha”REM COMPOSER“”ISRC DEA620200163 索引 00 66:08:68 索引 01 66:10:07 轨道 19 音频标题“Es ist an der Zeit (单编辑)" 表演者 "Marius Muller.Westernhagen" REM COMPOSER "" ISRC DEA620200448 INDEX 00 69:46:26 INDEX 01 69:47:57 TRACK 20 AUDIO TITLE "Let's Go to Bed (single mix)" 表演者 "No Angels feat 。慕斯 T.“REM 作曲家”ISRC DEN120206313 索引 00 73:41:48 索引 01 73:42:70 CD2 曲目列表: 1 珍妮特·比德曼 - 摇滚我的生活 2 兄弟姐妹 - 我相信 3 布兰妮·斯皮尔斯 - 男孩 4 莎拉·康纳壮举。 Wyclef Jean - One Nite Stand(狼与羊) 5 Ja 规则壮举。阿散蒂 - 永远准时 6 安娜斯塔西娅 - 你生命中的一天 7 Loona - 夜之节奏 8 Jan Wayne - 因为夜晚 9 Mark'oh - 让这个派对永无止境 10 Novaspace - 一次又一次 11 DJ Sammy - 天堂 12 卢特里西娅·麦克尼尔 - 完美的爱情 13 Kim Styles - 每一个都是赢家 14 Sophie Ellis-Bextor - 舞池谋杀案 15 Wonderwall - 只是更多 16 马龙+弗罗因德 - 利伯戈特 17 Xavier Naidoo - Wo Willst Du Hin? 18 Die Toten Hosen - Frauen Dieser Welt 19 巨大的音调 - 巡航 20 Bomfunk MC 的壮举。杰西卡·福尔克 (Jessica Folcker) - (破解) Something Going On Rip 创建日志 Exact Audio Copy V1.3 自 2016 年 9 月 2 日起EAC 提取日志文件自 2020 年 2 月 17 日 20:06Various Artists / Bravo: The Hits 2002, Part 2 CD2 使用的驱动器:HL-DT-STBD-RE BH16NS40 适配器:1 ID:0读取模式: 安全利用精确流 : 是删除音频缓存 : 是利用 C2 指针 : 否读取偏移校正 : 6 过度读入导入和导出 : 否用静音填充缺失的偏移样本 : 是删除前导和尾随静音块 : 否 CRC 计算中使用的空样本:是使用的接口:用于 Win NT 和 2000 的本机 Win32 接口使用的输出格式:用户定义的编码器选择的比特率:1024 kBit/s 质量:高添加 ID3 标签:否命令行压缩器:C:\Program Files\Exact Audio Copy\Flac\flac.exe附加命令行选项:-8 -V -T "ARTIST=%artist%" -T "TITLE=%title%" -T "ALBUM=%albumtitle%" -T "DATE=%year%" -T "TRACKNUMBER=%tracknr% " -T "GENRE=%流派%" -T "COMMENT=%comment%" -T "BAND=%白蛋白解释%" -T "ALBUMARTIST=%白蛋白解释%" -T "COMPOSER=%作曲家%" %haslyrics %- -tag-from-file=LYRICS="%lyricsfile%"%haslyrics% -T "DISCNUMBER=%cdnumber%" -T "TOTALDISCS=%totalcds%" -T "TOTALTRACKS=%numtracks%" %hascover%- -picture ="%coverfile%"%hascover% %source% -o 提取的 CD 轨道的 %dest%TOC |开始|长度|启动扇区 |结束扇区------------------------------------------------ --------- 1 | 0:00.00 | 3:55.50 | 0 | 17674 2 | 3:55.50 | 3:28.15 | 17675 | 17675 33289 3 | 7:23.65 | 3:46.60 | 33290 | 33290 50299 4 | 11:10.50 | 3:32.70 | 50300 | 66269 5 | 14:43.45 | 4:07.17 | 66270 | 84811 6 | 18:50.62 | 3:25.37 | 84812 | 100223 7 | 22:16.24 | 3:43.18 | 100224 | 100224 116966 8 | 25:59.42 | 3:31.45 | 116967 | 116967 132836 9 | 29:31.12 | 3:47.12 | 132837 | 132837 149873 10 | 33:18.24 | 3:44.53 | 149874 | 166726 11 | 37:03.02 | 3:54.00 | 166727 | 166727 184276 12 | 40:57.02 | 3:26.10 | 184277 | 184277 199736 13 | 44:23.12 | 3:22.55 | 199737 | 214941 14 | 47:45.67 | 3:37.24 | 214942 | 214942 231240 15 | 51:23.16 | 3:28.46 | 231241 | 231241 246886 16 | 54:51.62 | 4:25.25 | 246887 | 246887 266786 17 | 59:17.12 | 4:15.55 | 266787 | 266787 285966 18 | 63:32.67 | 3:52.20 | 285967 | 285967 303386 19 | 67:25.12 | 3:35.24 | 303387 | 303387 319535 20 | 71:00.36 | 3:48.39 | 319536 | 319536 336674范围状态和错误所选范围文件名 E:\FLAC MUSIC\Various Artists - Bravo- The Hits 2002, Part 2 CD2.wav 峰值电平 98.9% 提取速度 5.7 X 范围质量 99.9% 测试 CRC F961E83F 复制 CRC F961E83F 复制 OK 未发生错误AccurateRip 摘要曲目 1准确地撕裂(置信度 43) [0A8CAA73] (AR v2)轨道 2 准确地撕裂(置信度 44) [3D248C64] (AR v2)轨道 3 准确地撕裂(置信度 42) [CD6CAF77] (AR v2)轨道 4 准确地撕裂(置信度 43) ) [73354733] (AR v2)轨道 5 准确撕裂(置信度 43)[452A9C64] (AR v2)轨道 6 准确撕裂(置信度 43)[224A64D4] (AR v2)轨道 7 准确撕裂(置信度 44)[DFBE11C9]( AR v2)轨道 8 准确撕裂(置信度 42) [BCA5C9C4] (AR v2)轨道 9 准确撕裂(置信度 44) [8E083469] (AR v2)轨道 10 准确撕裂(置信度 44)[B5A50DC1] (AR v2)轨道 11准确地撕裂(置信度 43)[21A55423](AR v2)轨道 12 准确地撕裂(置信度 43)[C7389386](AR v2)轨道 13 准确地撕裂(置信度 44)[85940D6F](AR v2)轨道 14 准确地撕裂(置信度 43) ) [29082D36] (AR v2)轨道 15 准确撕裂(置信度 43)[EDE8F410] (AR v2)轨道 16 准确撕裂(置信度 42)[646F0CCC] (AR v2)轨道 17 准确撕裂(置信度 40)[91CF355C]( AR v2)轨道 18 准确撕裂(置信度 42) [B67E450C] (AR v2)轨道 19 准确撕裂(置信度 39) [B76C139D] (AR v2)轨道 20 准确撕裂(置信度 40)[5CCE88A9] (AR v2)所有轨道准确撕下状态报告结束---- CUETools DB Plugin V2.1.6[CTDB TOCID: 12M6R7INVUlx7DzlM3MxMEt7G_g-] 发现提交结果:已提交跟踪 | CTDB 状态 1 | (137/137) 准确撕开2 | (137/137) 准确撕开3 | (137/137) 准确撕开 4 | (137/137) 准确撕开5 | (137/137) 准确撕开 6 | (137/137) 准确撕开 7 | (136/137) 准确撕开8 | (137/137) 准确撕开 9 | (137/137) 准确撕开10 | (137/137) 准确撕开11 | (137/137) 准确撕开12 | (137/137) 准确撕开 13 | (137/137) 准确撕开 14 | (136/137) 准确撕开 15 | (136/137) 准确撕开16 | (136/137) 准确撕开 17 | (135/137) 准确撕开 18 | (137/137) 准确撕开 19 | (135/137) 准确撕20 | (134/137) 准确破解====日志校验和8EA12D0981AB9A06F7E9B17A3F62FF14F1256F0A0AC4CF831B77CBCA80153ABA ==== 索引卡内容 (.CUE) REM流派Poprem Date 2002REM shist 24118914REM评论“ Ectectaudiocopy v1.3”目录5099751048626Performer“各种艺术家”标题“ Bravo:Hits 2002,Part 2 CD2 CD2 CD2” REM COMPOSER“ REM COMPOSER” REM COMPOSER“ REM COMPOSER” file files files files files files files files files“ CD2 .flac" WAVE TRACK 01 AUDIO TITLE "Rock My Life (radio edit)" PERFORMER "Jeanette" REM COMPOSER "" ISRC DEN120206302 INDEX 01 00:00:00 TRACK 02 AUDIO TITLE "I Believe (video/radio mix)" PERFORMER “ Bro'Sis” REM COMPOSER “” ISRC DEN120103676 INDEX 00 03:54:15 INDEX 01 03:55:50 TRACK 03 音频标题 “Boys” PERFORMER “Britney Spears” REM Composer “” ISRC USJI10100425 INDEX 00 07:22:31 INDEX 01 07:23:65 TRACK 04 音频标题“One Nite Stand (Of Wolves and Sheep) (radio version)” PERFORMER“Sarah Connor feat. Wyclef Jean” REM Composer “” ISRC DEE860200840 INDEX 00 11:08:69 INDEX 01 11 :10:50 TRACK 05 音频标题“Always on Time”PERFORMER“Ja Rule feat. Ashanti”REM COMPOSER“”ISRC USDJ20110760 INDEX 00 14:42:10 INDEX 01 14:43:45 TRACK 06 AUDIO TITLE“One Day in Your Life (欧洲版)》 PERFORMER "Anastacia" REM COMPOSER "" ISRC USSM10113038 INDEX 00 18:48:73 INDEX 01 18:50:62 TRACK 07 AUDIO TITLE "Rhythm of the Night (单曲英文)" PERFORMER "Loona" REM作曲家“” ISRC DEN120205606 索引 00 22:15:19 索引 01 22:16:24 曲目 08 音频标题“因为夜晚(广播编辑)” 表演者“Jan Wayne” REM 作曲家“” ISRC DEN060200548 索引 00 25:58:00 INDEX 01 25:59:42 TRACK 09 音频标题“Let This Party Never End(视频剪辑)”表演者“Mark 'Oh”REM Composer“”ISRC DEE860200632 INDEX 00 29:29:55 INDEX 01 29:31:12 TRACK 10音频标题“Time After Time(无线电编辑)”表演者“Novaspace”REM COMPOSER“ISRC DES230200140 INDEX 00 33:16:61 INDEX 01 33:18:24 TRACK 11 音频标题“Heaven(S'n'Y mix radio edit) ) " 表演者 "DJ Sammy" REM COMPOSER "" ISRC DEN120110192 索引 00 37:01:53 索引 01 37:03:02 曲目 12 音频标题 "Perfect Love (radio mix)" 表演者 "Lutricia McNeal" REM COMPOSER "" ISRC DEN120204596 INDEX 00 40:55:46 INDEX 01 40:57:02 轨道 13 音频标题“Every 1's a Winner (radio mix)”表演者“Kim Styles”REM Composer“”ISRC DEE860200896 INDEX 00 44:21:57 INDEX 01 44: 23 :12 轨道 14 音频标题“舞池谋杀案(无线电编辑)”表演者“Sophie Ellis.Bextor”REM COMPOSER“ISRC GBAKW0100329 索引 00 47:44:50 索引 01 47:45:67 轨道 15 音频标题“Just更多(单一编辑)" 表演者 "Wonderwall" REM COMPOSER "" ISRC DEA620200016 INDEX 00 51:21:59 INDEX 01 51:23:16 TRACK 16 AUDIO TITLE "Lieber Gott (Marlon + Freunde Radioversion)" 表演者 "Marlon + Freunde" REM COMPOSER "" ISRC DEE860201006 INDEX 00 54:50:28 INDEX 01 54:51:62 TRACK 17 AUDIO TITLE "Wo willst Du hin? (广播编辑)" 表演者 "Xavier Naidoo" REM COMPOSER "" ISRC DES810100017 INDEX 00 59:15:62 INDEX 01 59:17:12 TRACK 18 AUDIO TITLE "Frauen dieser Welt" 表演者 "Die Toten Hosen" REM COMPOSER "" ISRC DEF240201730 索引 00 63:31:34 索引 01 63:32:67 轨道 19 音频标题“Cruisen(视频版本)”表演者“Massive Tone”REM Composer“” ISRC DEA610200326 索引 00 67:23:56 索引 01 67:25: 12 TRACK 20 AUDIO TITLE “(Crack It) Something Going On” PERFORMER “Bomfunk MC 的壮举。杰西卡·福尔克“REM 作曲家”ISRC FISME0200002 索引 00 70:58:68 索引 01 71:00:36

请先登录

回复 (流行、电子、嘻哈、摇滚)[CD] VA - Bravo - The Hits 2002 - Part 2 (2 CD) - 2002,FLAC (image+.cue),无损

VIP专属快捷回复:

支持高兴激动给力加油围观路过感动抢座
轩轩音乐所有信息均由网友转载自互联网,没有存储任何形式的文件供下载,请下载试看后删除,请购买正版支持正版。本站内容如有侵权请联系:k42d.rr.nu, 我们会在收到您的邮件后立即删除!
主题数87279回复数72444用户数17262
最新VIP

酸奶文 开通了 包月VIP
热心睿 开通了 季度VIP
丁家祥 开通了 包月VIP
咖啡甜美 开通了 季度VIP
辛勤悟空 开通了 季度VIP
怡然诺言 开通了 包月VIP
典雅骅 开通了 年费VIP
花羽 开通了 包月VIP
酸奶文 开通了 包月VIP
热心睿 开通了 季度VIP

Copyright © 2023 轩轩音乐 XX.CQE.CC
POWER BY CleenBB x3.4 PROCESSED: 15.6